How to Get Away with Murder S04E13

Posted By: Tavaz
SD / HDTV IMDb
How to Get Away with Murder S04E13

How to Get Away with Murder S04E13
HDTV | MKV | 720x404 | German | H264 @ 647 kbps | AC-3 @ 192 kbps | 41 min 12 s | 253 MiB
Genre: Krimi, Drama, Mystery

Annalise Keating ist eine brilliante, charismatische und fesselnde Professorin, die den Kurs „How to Get Away with Murder“ anbietet. Doch die Studenten wissen zu Beginn nicht, dass sie das Erlernte schon bald in der Realität anwenden müssen …

S04E13 German.mkv (252.6 MB)



General
Unique ID : 146115966896961860321197717445993200869 (0x6DECE95E9E06D374754DC6B5DD367CE5)
Complete name : ./HotGaw S04E13 German/S04E13 German.mkv
Format : Matroska
Format version : Version 4 / Version 2
File size : 253 MiB
Duration : 41 min 12 s
Overall bit rate : 857 kb/s
Encoded date : UTC 2018-07-04 06:49:12
Writing application : mkvmerge v24.0.0 ('Beyond The Pale') 64-bit
Writing library : libebml v1.3.6 + libmatroska v1.4.9

Video
ID : 1
Format : AVC
Format/Info : Advanced Video Codec
Format profile : [email protected]
Format settings : CABAC / 5 Ref Frames
Format settings, CABAC : Yes
Format settings, RefFrames : 5 frames
Codec ID : V_MPEG4/ISO/AVC
Duration : 41 min 12 s
Bit rate : 648 kb/s
Width : 720 pixels
Height : 404 pixels
Display aspect ratio : 16:9
Frame rate mode : Constant
Frame rate : 25.000 FPS
Color space : YUV
Chroma subsampling : 4:2:0
Bit depth : 8 bits
Scan type : Progressive
Bits/(Pixel*Frame) : 0.089
Stream size : 191 MiB (76%)
Writing library : x264 core 155 r2901 7d0ff22
Encoding settings : cabac=1 / ref=5 / deblock=1:-2:-2 / analyse=0x3:0x113 / me=umh / subme=8 / psy=1 / psy_rd=1.00:0.00 / mixed_ref=1 / me_range=16 / chroma_me=1 / trellis=2 / 8x8dct=1 / cqm=0 / deadzone=21,11 / fast_pskip=0 / chroma_qp_offset=-2 / threads=12 / lookahead_threads=2 / sliced_threads=0 / nr=0 / decimate=1 / interlaced=0 / bluray_compat=0 / constrained_intra=0 / bframes=3 / b_pyramid=2 / b_adapt=2 / b_bias=0 / direct=3 / weightb=1 / open_gop=0 / weightp=2 / keyint=250 / keyint_min=25 / scenecut=40 / intra_refresh=0 / rc_lookahead=50 / rc=crf / mbtree=1 / crf=19.0 / qcomp=0.60 / qpmin=0 / qpmax=69 / qpstep=4 / ip_ratio=1.40 / aq=1:0.80
Language : English
Default : Yes
Forced : No

Audio
ID : 2
Format : AC-3
Format/Info : Audio Coding 3
Format settings, Endianness : Big
Codec ID : A_AC3
Duration : 41 min 12 s
Bit rate mode : Constant
Bit rate : 192 kb/s
Channel(s) : 2 channels
Channel positions : Front: L R
Sampling rate : 48.0 kHz
Frame rate : 31.250 FPS (1536 SPF)
Bit depth : 16 bits
Compression mode : Lossy
Stream size : 56.6 MiB (22%)
Language : German
Service kind : Complete Main
Default : Yes
Forced : No





How to Get Away with Murder S04E13


How to Get Away with Murder S04E13


How to Get Away with Murder S04E13


How to Get Away with Murder S04E13


How to Get Away with Murder S04E13

All episodes

SitemapThám Tử Lừng Danh Conan chap 897 | Adobe Premiere Pro CC 2019 13.0.0 (x64) + Crack [CracksNow] | Die Dornenvögel Thriller | 30 Vintage Art Deco Iron Stair Clips. Grips. Grippers. Carpet Runner. | Baixar toque para celular